Winter Woods Rosewood 2019 24bit Hi - Res

 Quality-Lossless
Release-2019
Duration-00:49:20
File Size-624 MB
Genre-Folk
Cover Size-1400px
---------------------------------------------------------------------------------------------- Analyzed: Rosewood / Artist: Winter Woods
---------------------------------------------------------------------------------------------- DR Peak RMS Duration Title [codec] ---------------------------------------------------------------------------------------------- DR9 -0.00 dB -13.19 dB 4:40 01 - A Few More Steps [flac] DR7 -0.19 dB -11.10 dB 3:25 02 - Change Is Coming (Album Version) [flac] DR8 -0.23 dB -11.00 dB 2:56 03 - Rosewood [flac] DR7 -0.19 dB -10.90 dB 3:41 04 - Thunder [flac] DR7 -0.35 dB -11.41 dB 2:35 05 - Jakob [flac] DR8 -0.00 dB -10.20 dB 3:31 06 - Falling [flac] DR7 -0.24 dB -9.47 dB 4:04 07 - Into the Light [flac] DR7 -0.26 dB -9.87 dB 2:31 08 - Hold On [flac] DR7 -0.43 dB -10.23 dB 3:28 09 - Y [flac] DR8 -0.32 dB -10.56 dB 3:12 10 - Love [flac] DR9 -0.63 dB -14.45 dB 3:12 11 - Promises [flac] DR8 -0.28 dB -10.93 dB 3:14 12 - Empty Glass [flac] DR7 -0.21 dB -11.52 dB 3:35 13 - Waves of Soul [flac] DR8 -0.38 dB -11.03 dB 5:11 14 - Wagon Wheel [flac] ---------------------------------------------------------------------------------------------- Number of files: 14
Official DR value: DR8
Sampling rate: 48000 Hz
Average bitrate: 1683kbs Bits per sample: 24 bit

Release info : Winter.Woods.Rosewood.2019.24bit.Hi-Res

Year : (2019)

Langue : English Release English

Section : Music

Uploader: XBot

Size : 596 MB

Added : 2 months ago

Winter Woods Rosewood 2019 24bit Hi - Res Image

Verified




  Music VA - Spheres Of Life January 16 2020 MP3 320 Kbps
VA - Spheres Of Life
 MP3  228 MB  Release english Download
  Music VA - Pop Giganten NDW 3CD 2020 MP3 320 Kbps
VA - Pop Giganten NDW (3CD) (2020)
 MP3  493 MB  Release english Download
  Music VA - United Beats Of Downtempo Vol 2 January 16 2020 MP3 320 Kbps
VA - United Beats Of Downtempo, Vol 2
 MP3  811 MB  Release english Download
  Music VA - Glitching October 14 2019 FLAC Lossless
VA - Glitching
 FLAC  620 MB  Release english Download
  Music VA - Illusorium October 5 2019 FLAC Lossless
VA - Illusorium
 FLAC  522 MB  Release english Download
  Music VA - German Top 50 Official Dance Charts 17 01 2020 MP3 320 Kbps
VA - German Top 50 Official Dance Charts (1701)
 MP3  382 MB  Release english Download
  Music VA - Growling Forest II November 12 2019 FLAC Lossless
VA - Growling Forest II
 FLAC  594 MB  Release english Download
  Music VA - Italo Disco Romantique Vol 2 2020 MP3 320 Kbps
VA - Italo Disco Romantique Vol.2 (2020)
 MP3  190 MB  Release english Download