Various Artists Ibiza Night Vocation 2019 24bit Hi - Res

 Quality-Lossless
Release-2019
Duration-01:14:14
File Size-906 MB
Genre-House
Cover Size-1400px
---------------------------------------------------------------------------------------------- Analyzed: Ibiza Night Vocation / Artist: Various Artists
---------------------------------------------------------------------------------------------- DR Peak RMS Duration Title [codec] ---------------------------------------------------------------------------------------------- DR5 -1.17 dB -9.19 dB 3:02 01 - Put It the Way [flac] DR7 -2.17 dB -9.77 dB 2:56 02 - The Babbies (Carlton Dubs Mix) [flac] DR5 -1.17 dB -9.08 dB 3:04 03 - Prestige of Breed (Progressive Mix) [flac] DR6 -1.88 dB -9.98 dB 3:10 04 - Diving High [flac] DR6 -1.19 dB -8.79 dB 3:04 05 - Powered (Prince's Power Mix) [flac] DR5 -1.14 dB -8.65 dB 3:04 06 - I Want You [flac] DR6 -1.26 dB -10.37 dB 2:28 07 - Formula E (Speed Mix) [flac] DR6 -1.22 dB -8.32 dB 3:04 08 - Asasuna (Deep Underground Mix) [flac] DR4 -1.19 dB -9.10 dB 2:46 09 - Feel You (Phantom Mix) [flac] DR3 -1.23 dB -7.29 dB 3:04 10 - Another Paradigm [flac] DR5 -1.11 dB -8.65 dB 3:06 11 - Here We Go Again (34 Apartment Mix) [flac] DR6 -1.17 dB -9.58 dB 3:14 12 - Visions (Analogue Mix) [flac] DR5 -1.30 dB -7.66 dB 2:58 13 - I Feel so Hight (Hardcore Mix) [flac] DR6 -1.40 dB -10.66 dB 2:56 14 - I Got Fever (Falcon House Tool) [flac] DR4 -1.63 dB -8.87 dB 3:00 15 - Shot of Passion [flac] DR6 -1.07 dB -9.13 dB 3:10 16 - Freaky Little Thing (Balls Mix) [flac] DR6 -1.20 dB -9.08 dB 3:04 17 - External Love [flac] DR5 -1.04 dB -9.47 dB 3:00 18 - You and Me (Dub) [flac] DR6 -0.94 dB -8.18 dB 2:56 19 - Bistory Chem [flac] DR7 -1.33 dB -9.90 dB 3:14 20 - Deepland (Cut) [flac] DR6 -1.59 dB -10.00 dB 2:43 21 - Flat (Flat Mix) [flac] DR6 -1.66 dB -10.18 dB 2:33 22 - Horn Twins (Berlin Massive Mix) [flac] DR7 -1.54 dB -11.12 dB 3:04 23 - Flik Flok (Groove-A-Rama Mix) [flac] DR5 -1.25 dB -8.91 dB 2:58 24 - New Prank [flac] DR7 -1.22 dB -9.40 dB 2:18 25 - Hyperpassive (Hyperspace Mix) [flac] ---------------------------------------------------------------------------------------------- Number of files: 25
Official DR value: DR6
Sampling rate: 44100 Hz
Average bitrate: 1623kbs Bits per sample: 24 bit

Release info : Various.Artists.Ibiza.Night.Vocation.2019.24bit.Hi-Res

Year : (2019)

Langue : English Release English

Section : Music

Uploader: Moonshine

Size : 865 MB

Added : 8 months ago

Various Artists Ibiza Night Vocation 2019 24bit Hi - Res Image

Verified




  Music Robots With Rayguns - C U L T P O P 2019 FLAC Lossless
Robots With Rayguns - C U L T P O P (2019)
 FLAC  376 MB  Release english Download
  Music Mr Bungle - The Studio Album Collection 3CD 2013 MP3 320 Kbps
Mr. Bungle - The Studio Album Collection (3CD) (2013)
 MP3  429 MB  Release english Download
  Music VA - Retro Remix Quality Vol 349 2020 MP3 320 Kbps
VA - Retro Remix Quality Vol.349 (2020)
 MP3  460 MB  Release english Download
  Music Lou Reed - The Studio Album Collection 1989-2000 2015 MP3 320 Kbps
Lou Reed - The Studio Album Collection 1989-2000 (2015)
 MP3  685 MB  Release english Download
  Music The Midnight - Kids 2018 FLAC Lossless
The Midnight - Kids (2018)
 FLAC  231 MB  Release english Download
  Music Baleful Creed - The Lowdown May 1 2020 MP3 320 Kbps
Baleful Creed - The Lowdown
 MP3  97 MB  Release english Download
  Music Mean Messiah - Divine Technology May 5 2020 MP3 320 Kbps
Mean Messiah - Divine Technology
 MP3  95 MB  Release english Download
  Music Norskald - The Laughing Bird EP March 6 2020 MP3 320 Kbps
Norskald - The Laughing Bird (EP)
 MP3  38 MB  Release english Download