Take That Odyssey Greatest Hits Live 2019 24bit Hi - Res

 Quality-Lossless
Release-2019
Duration-01:50:55
File Size-1.45 GB
Genre-Pop
Cover Size-1400px
---------------------------------------------------------------------------------------------- Analyzed: Odyssey - Greatest Hits Live / Artist: Take That
---------------------------------------------------------------------------------------------- DR Peak RMS Duration Title [codec] ---------------------------------------------------------------------------------------------- DR6 -0.78 dB -9.12 dB 4:53 01 - Greatest Day (Live) [flac] DR7 -0.40 dB -8.97 dB 3:25 02 - It Only Takes A Minute (Live) [flac] DR7 -1.14 dB -9.36 dB 3:35 03 - These Days (Live) [flac] DR7 -0.68 dB -9.19 dB 3:58 04 - Could It Be Magic (Live) [flac] DR7 -0.85 dB -8.70 dB 2:53 05 - Everything Changes (Live) [flac] DR10 -1.72 dB -14.45 dB 0:22 06 - Travel Interlude (Live) [flac] DR8 -1.34 dB -10.84 dB 4:17 07 - Out Of Our Heads (Live) [flac] DR7 -1.36 dB -10.05 dB 4:03 08 - A Million Love Songs (Live) [flac] DR7 -1.00 dB -10.15 dB 4:24 09 - Sure (Live) [flac] DR7 -1.56 dB -10.95 dB 4:00 10 - Love Ain't Here Anymore (Live) [flac] DR7 -1.31 dB -11.07 dB 4:20 11 - Spin (Live) [flac] DR6 -1.18 dB -8.95 dB 4:17 12 - Cry (Live) [flac] DR6 -1.26 dB -9.63 dB 4:36 13 - Said It All (Live) [flac] DR8 -0.47 dB -10.83 dB 3:16 14 - How Deep Is Your Love (Live) [flac] DR12 -1.60 dB -19.90 dB 2:41 15 - Let's Do It Again Interlude (Live) [flac] DR6 -1.55 dB -9.88 dB 3:23 16 - Patience (Live) [flac] DR7 -1.35 dB -10.18 dB 4:46 17 - The Flood (Live) [flac] DR7 -1.50 dB -10.68 dB 3:58 18 - Back For Good (Live) [flac] DR7 -1.11 dB -10.41 dB 4:30 19 - Get Ready For It (Live) [flac] DR7 -1.55 dB -11.16 dB 3:45 20 - Everlasting (Live) [flac] DR7 -1.51 dB -11.28 dB 5:17 21 - Giants (Live) [flac] DR6 -1.55 dB -8.78 dB 4:00 22 - Shine (Live) [flac] DR6 -1.11 dB -9.26 dB 5:28 23 - Never Forget (Live) [flac] DR5 -1.53 dB -8.84 dB 6:03 24 - Relight My Fire (Live) [flac] DR9 -1.69 dB -14.58 dB 4:30 25 - Babe (Live) [flac] DR8 -0.50 dB -11.61 dB 4:00 26 - Pray (Live) [flac] DR6 -0.80 dB -8.83 dB 6:01 27 - Rule The World (Live) [flac] ---------------------------------------------------------------------------------------------- Number of files: 27
Official DR value: DR7
Sampling rate: 44100 Hz
Average bitrate: 1740kbs Bits per sample: 24 bit

Release info : Take.That.Odyssey.Greatest.Hits.Live.2019.24bit.Hi-Res

Year : (2019)

Langue : English Release English

Section : Music

Uploader: Paradox

Size : 1.4 GB

Added : 8 months ago

Take That Odyssey Greatest Hits Live 2019 24bit Hi - Res Image

Verified




  Music VA - Best 80s Hits 2020 MP3 320 Kbps
VA - Best 80s Hits (2020)
 MP3  410 MB  Release english Download
  Music VA - Today We Play Led Zeppelin 2020 MP3 V0
VA - Today We Play... Led Zeppelin (2020)
 MP3  150 MB  Release english Download
  Music VA - Blues Rock Forward! 59 2020 MP3 320 Kbps
VA - Blues Rock Forward! 59 (2020)
 MP3  207 MB  Release english Download
  Music Rebel Wizard - Magickal Mystical Indifference July 10 2020 MP3 320 Kbps
Rebel Wizard - Magickal Mystical Indifference
 MP3  78 MB  Release english Download
  Music VA - Blues Rock Forward! 60 2020 MP3 320 Kbps
VA - Blues Rock Forward! 60 (2020)
 MP3  222 MB  Release english Download
  Music VA - Retro Remix Quality Vol 371 2020 MP3 320 Kbps
VA - Retro Remix Quality Vol.371 (2020)
 MP3  439 MB  Release english Download
  Music VA - Latin Music Summer Party May 22 2020 MP3 320 Kbps
VA - Latin Music Summer Party
 MP3  266 MB  Release english Download
  Music VA - Tropical & Deep House Summer Mix 2020 May 29 2020 MP3 320 Kbps
VA - Tropical & Deep House: Summer Mix 2020
 MP3  201 MB  Release english Download