Sultan Shepard Echoes Of Life Night 2019 Flac

 Quality-Lossless
Release-2019
Duration-00:33:19
File Size-225 MB
Genre-Dance
Cover Size-1400px
---------------------------------------------------------------------------------------------- Analyzed: Echoes Of Life: Night / Artist: Sultan + Shepard
---------------------------------------------------------------------------------------------- DR Peak RMS Duration Title [codec] ---------------------------------------------------------------------------------------------- DR4 -0.00 dB -7.98 dB 4:04 01 - Bloom (Intro Mix) [flac] DR5 -0.09 dB -7.67 dB 3:25 02 - And If... [flac] DR5 -0.09 dB -7.40 dB 3:33 03 - All Of Your Weapons [flac] DR5 -0.12 dB -7.33 dB 3:50 04 - Scuba [flac] DR3 -0.00 dB -6.25 dB 3:29 05 - Hold On [flac] DR5 -0.00 dB -7.52 dB 3:45 06 - Lion [flac] DR4 -0.09 dB -8.80 dB 3:18 07 - Siwa [flac] DR4 -0.00 dB -6.93 dB 4:16 08 - Departures [flac] DR4 -0.11 dB -6.49 dB 3:35 09 - The Way [flac] ---------------------------------------------------------------------------------------------- Number of files: 9
Official DR value: DR4
Sampling rate: 44100 Hz
Average bitrate: 884kbs Bits per sample: 16 bit

Release info : Sultan.Shepard.Echoes.Of.Life.Night.2019.Flac

Year : (2019)

Langue : English Release English

Section : Music

Quality :  FLAC

Uploader: XBot

Size : 213 MB

Added : 2 months ago

Sultan Shepard Echoes Of Life Night 2019 Flac Image

Verified




  Music VA - Glitching October 14 2019 FLAC Lossless
VA - Glitching
 FLAC  620 MB  Release english Download
  Music VA - Illusorium October 5 2019 FLAC Lossless
VA - Illusorium
 FLAC  522 MB  Release english Download
  Music VA - German Top 50 Official Dance Charts 17 01 2020 MP3 320 Kbps
VA - German Top 50 Official Dance Charts (1701)
 MP3  382 MB  Release english Download
  Music VA - Growling Forest II November 12 2019 FLAC Lossless
VA - Growling Forest II
 FLAC  594 MB  Release english Download
  Music VA - Italo Disco Romantique Vol 2 2020 MP3 320 Kbps
VA - Italo Disco Romantique Vol.2 (2020)
 MP3  190 MB  Release english Download
  Music VA - Nopi UA -Blanche I January 17 2020 FLAC Lossless
VA - Nopi (UA)-Blanche I
 FLAC  312 MB  Release english Download
  Music VA - Milk & Sugar Club Cuts Vol 10 January 17 2020 FLAC Lossless
VA - Milk & Sugar Club Cuts Vol 10
 FLAC  868 MB  Release english Download
  Music VA - Stellar Fountain Presents Winter 2019 January 17 2020 FLAC Lossless
VA - Stellar Fountain Presents: Winter 2019
 FLAC  1.52 GB  Release english Download