Nima Gorji - Before The Storm

Deep House, Minimal, Tech House

Tracklist :
01. Nima Gorji - Cosmic Echoes (8:40)
02. Nima Gorji - Confused (Nima Gorji Reconfused Remix) (9:35)
03. Nima Gorji - Fundamental (7:25)
04. Nima Gorji - Superficiality (7:41)
05. Nima Gorji - Good Night Stories (7:10)
06. Nima Gorji - Foreal (8:51)
07. Nima Gorji - Express (7:27)
08. Nima Gorji - Guaresnei (Nima Gorji Mix) (7:28)
09. Nima Gorji - Monday (Nima Gorji Remix) (7:23)
10. Nima Gorji - Early Bird (7:53)
foobar2000 1.3.16 / Dynamic Range Meter 1.1.1
DR11 -0.51 dB -11.87 dB 8:40 01-Cosmic Echoes
DR7 0.00 dB -7.97 dB 9:35 02-Confused (Nima Gorji Reconfused Remix)
DR5 -0.10 dB -5.71 dB 7:25 03-Fundamental
DR7 -0.40 dB -7.99 dB 7:41 04-Superficiality
DR6 -0.40 dB -6.99 dB 7:10 05-Good Night Stories
DR7 -0.61 dB -8.11 dB 8:51 06-Foreal
DR7 -0.31 dB -7.40 dB 7:27 07-Express
DR8 -0.61 dB -9.73 dB 7:28 08-Guaresnei (Nima Gorji Mix)
DR8 -0.10 dB -8.77 dB 7:23 09-Monday (Nima Gorji Remix)
DR7 0.00 dB -7.42 dB 7:53 10-Early Bird

Release info : Nima.Gorji.-.Before.The.Storm.April.15.2020.FLAC.Lossless

Langue : English Release English

Section : Music

Quality :  FLAC

Uploader: Paradox

Size : 543 MB

Added : 3 days ago

Nima Gorji - Before The Storm Image

Verified




  Music VA - Erotic Lounge Essential Summer May 11 2020 MP3 320 Kbps
VA - Erotic Lounge Essential Summer
 MP3  253 MB  Release english Download
  Music Lil Uzi Vert - Eternal Atake March 6 2020 FLAC Lossless
Lil Uzi Vert - Eternal Atake
 FLAC  389 MB  Release english Download
  Music ЛЯПИС 98 - Неизвестные песни Ляписов May 22 2020 MP3 320 Kbps
ЛЯПИС 98 - Неизвестные песни Ляписов
 MP3  193 MB  Release english Download
  Music Aardvark Jazz Orchestra - Faces Of Souls May 1 2020 FLAC Lossless
Aardvark Jazz Orchestra - Faces Of Souls
 FLAC  296 MB  Release english Download
  Music VA - Best Of The Year 2019 Pt 1 January 13 2020 FLAC Lossless
VA - Best Of The Year 2019, Pt. 1
 FLAC  1.16 GB  Release english Download
  Music Filtergeist - We Are Memories May 25 2020 FLAC Lossless
Filtergeist - We Are Memories
 FLAC  882 MB  Release english Download
  Music VA - Oscuro - Diving Into The Darkness Vol 1 May 25 2020 FLAC Lossless
VA - Oscuro - Diving Into The Darkness Vol 1
 FLAC  794 MB  Release english Download
  Music Lowdead - Weathered May 25 2020 MP3 320 Kbps
Lowdead - Weathered
 MP3  96 MB  Release english Download