Neave Trio Her Voice 2019 24 - 96 - was95

 Quality-Lossless
Release-2019
Duration-01:12:00
File Size-1.26 GB
Genre-Classical
Cover Size-1400px
---------------------------------------------------------------------------------------------- Analyzed: Her Voice /  Artist: Neave Trio
---------------------------------------------------------------------------------------------- DR Peak RMS Duration Title [codec] ---------------------------------------------------------------------------------------------- DR16 -1.49 dB -24.61 dB 12:06 01 - I. Allegro [flac] DR15 -3.78 dB -27.31 dB 7:45 02 - II. Adagio sostenuto [flac] DR17 -1.10 dB -26.61 dB 6:50 03 - III. Minuetto. Allegro [flac] DR14 -2.57 dB -23.44 dB 8:13 04 - IV. Finale. Vivace [flac] DR13 -0.85 dB -24.74 dB 4:58 05 - I. Allegro [flac] DR16 -2.61 dB -27.44 dB 5:20 06 - II. Lento espressivo [flac] DR14 -2.23 dB -25.18 dB 4:36 07 - III. Allegro con brio [flac] DR14 -0.92 dB -24.50 dB 8:41 08 - I. Moderato ma appassionato [flac] DR16 -6.23 dB -31.77 dB 5:54 09 - II. Andante molto semplice [flac] DR14 -0.80 dB -23.89 dB 7:33 10 - III. Allegro vigoroso [flac] ---------------------------------------------------------------------------------------------- Number of files:    10
Official DR value:  DR15
Sampling rate: 96000 Hz
Average bitrate: 2318kbs Bits per sample: 24 bit

Release info : Neave.Trio.Her.Voice.2019.24-96.-was95

Year : (2019)

Langue : English Release English

Section : Music

Uploader: XBot

Size : 1.2 GB

Added : 4 months ago

Neave Trio Her Voice 2019 24 - 96 - was95 Image

Verified




  Music Blues Whale - Four Birds November 7 2019 FLAC Lossless
Blues Whale - Four Birds
 FLAC  252 MB  Release english Download
  Music Bocephous Duphrane - Morning Wood EP January 1 2020 FLAC Lossless
Bocephous Duphrane - Morning Wood (EP)
 FLAC  99 MB  Release english Download
  Music Alawishus Jones & The Outright Lies - Little White Lies January 6 2020 FLAC Lossless
Alawishus Jones & The Outright Lies - Little White Lies
 FLAC  202 MB  Release english Download
  Music VA - Ultimate Deep House Selection The Grand Rhythms 2020 MP3 320 Kbps
VA - Ultimate Deep House Selection (The Grand Rhythms) (2020)
 MP3  257 MB  Release english Download
  Music VA - Spheres Of Life January 16 2020 MP3 320 Kbps
VA - Spheres Of Life
 MP3  228 MB  Release english Download
  Music VA - Pop Giganten NDW 3CD 2020 MP3 320 Kbps
VA - Pop Giganten NDW (3CD) (2020)
 MP3  493 MB  Release english Download
  Music VA - United Beats Of Downtempo Vol 2 January 16 2020 MP3 320 Kbps
VA - United Beats Of Downtempo, Vol 2
 MP3  811 MB  Release english Download
  Music VA - Glitching October 14 2019 FLAC Lossless
VA - Glitching
 FLAC  620 MB  Release english Download