Matthieu Thonon Le silence des alouettes 2019 24bit Hi - Res

 Quality-Lossless
Release-2019
Duration-00:47:35
File Size-547 MB
Genre-Pop French
Cover Size-1400px
---------------------------------------------------------------------------------------------- Analyzed: Le silence des alouettes / Artist: Matthieu Thonon
---------------------------------------------------------------------------------------------- DR Peak RMS Duration Title [codec] ---------------------------------------------------------------------------------------------- DR8 -0.27 dB -13.54 dB 2:29 01 - Le silence des alouettes [flac] DR7 -0.27 dB -8.89 dB 3:49 02 - Le grand débranchement [flac] DR8 -0.27 dB -10.98 dB 2:25 03 - Au bout de mon chemin [flac] DR7 -0.27 dB -9.76 dB 3:02 04 - Sous nos pieds [flac] DR7 -0.27 dB -10.54 dB 5:04 05 - L'oubli [flac] DR7 -0.27 dB -8.38 dB 4:07 06 - Ihsane [flac] DR7 -0.27 dB -9.73 dB 3:18 07 - Masser [flac] DR8 -0.27 dB -10.13 dB 3:16 08 - Changer [flac] DR6 -0.27 dB -9.51 dB 3:48 09 - La terre amoureuse [flac] DR8 -0.27 dB -10.31 dB 3:14 10 - J'suis pas doué [flac] DR8 -0.27 dB -13.10 dB 3:50 11 - Salée [flac] DR8 -0.27 dB -10.03 dB 4:34 12 - Calling Roses [flac] DR9 -0.27 dB -13.99 dB 5:33 13 - Dors [flac] ---------------------------------------------------------------------------------------------- Number of files: 13
Official DR value: DR8
Sampling rate: 44100 Hz
Average bitrate: 1502kbs Bits per sample: 24 bit

Release info : Matthieu.Thonon.Le.silence.des.alouettes.2019.24bit.Hi-Res

Year : (2019)

Langue : English Release English

Section : Music

Uploader: Cryptonic

Size : 522 MB

Added : 3 months ago

Matthieu Thonon Le silence des alouettes 2019 24bit Hi - Res Image

Verified




  Music VA - Ultimate Deep House Selection The Grand Rhythms 2020 MP3 320 Kbps
VA - Ultimate Deep House Selection (The Grand Rhythms) (2020)
 MP3  257 MB  Release english Download
  Music VA - Spheres Of Life January 16 2020 MP3 320 Kbps
VA - Spheres Of Life
 MP3  228 MB  Release english Download
  Music VA - Pop Giganten NDW 3CD 2020 MP3 320 Kbps
VA - Pop Giganten NDW (3CD) (2020)
 MP3  493 MB  Release english Download
  Music VA - United Beats Of Downtempo Vol 2 January 16 2020 MP3 320 Kbps
VA - United Beats Of Downtempo, Vol 2
 MP3  811 MB  Release english Download
  Music VA - Glitching October 14 2019 FLAC Lossless
VA - Glitching
 FLAC  620 MB  Release english Download
  Music VA - Illusorium October 5 2019 FLAC Lossless
VA - Illusorium
 FLAC  522 MB  Release english Download
  Music VA - German Top 50 Official Dance Charts 17 01 2020 MP3 320 Kbps
VA - German Top 50 Official Dance Charts (1701)
 MP3  382 MB  Release english Download
  Music VA - Growling Forest II November 12 2019 FLAC Lossless
VA - Growling Forest II
 FLAC  594 MB  Release english Download