LiZ Planet Y2K 2019 Flac

 Quality-Lossless
Release-2019
Duration-00:50:38
File Size-388 MB
Genre-Pop
Cover Size-1400px
---------------------------------------------------------------------------------------------- Analyzed: Planet Y2K / Artist: LiZ
---------------------------------------------------------------------------------------------- DR Peak RMS Duration Title [codec] ---------------------------------------------------------------------------------------------- DR7 -0.08 dB -9.84 dB 2:58 01 - Cloudbusting [flac] DR5 -0.08 dB -7.35 dB 2:58 02 - BTR 2GTHR [flac] DR6 -0.08 dB -8.84 dB 3:41 03 - Diamond in the Dark [flac] DR5 -0.08 dB -8.19 dB 4:13 04 - Laguna Nights [flac] DR6 -0.08 dB -7.81 dB 2:58 05 - Intuition [flac] DR6 -0.05 dB -7.85 dB 3:31 06 - Mickey [flac] DR6 -0.03 dB -7.22 dB 3:06 07 - Bubblegum [flac] DR6 -0.08 dB -7.27 dB 2:16 08 - Cool with It [flac] DR4 -0.05 dB -5.71 dB 3:14 09 - Lottery [flac] DR7 -0.08 dB -8.47 dB 3:20 10 - Electricity [flac] DR6 -0.09 dB -9.92 dB 2:58 11 - Everybody [flac] DR10 -0.30 dB -11.60 dB 2:24 12 - Lost U 2 the Boys [flac] DR5 -0.08 dB -8.06 dB 3:22 13 - Mood Ring [flac] DR7 -0.09 dB -8.38 dB 3:58 14 - Hearts Don't Break [flac] DR7 -0.08 dB -10.62 dB 2:10 15 - Baby Blue [flac] DR7 -0.07 dB -10.67 dB 3:24 16 - Last Call (Afterparty Mix) [flac] ---------------------------------------------------------------------------------------------- Number of files: 16
Official DR value: DR6
Sampling rate: 44100 Hz
Average bitrate: 1018kbs Bits per sample: 16 bit

Release info : LiZ.Planet.Y2K.2019.Flac

Year : (2019)

Langue : English Release English

Section : Music

Quality :  FLAC

Uploader: DriffiX

Size : 371 MB

Added : 8 months ago

LiZ Planet Y2K 2019 Flac Image

Verified




  Music VA - Blues Rock Forward! 59 2020 MP3 320 Kbps
VA - Blues Rock Forward! 59 (2020)
 MP3  207 MB  Release english Download
  Music Rebel Wizard - Magickal Mystical Indifference July 10 2020 MP3 320 Kbps
Rebel Wizard - Magickal Mystical Indifference
 MP3  78 MB  Release english Download
  Music VA - Blues Rock Forward! 60 2020 MP3 320 Kbps
VA - Blues Rock Forward! 60 (2020)
 MP3  222 MB  Release english Download
  Music VA - Retro Remix Quality Vol 371 2020 MP3 320 Kbps
VA - Retro Remix Quality Vol.371 (2020)
 MP3  439 MB  Release english Download
  Music VA - Latin Music Summer Party May 22 2020 MP3 320 Kbps
VA - Latin Music Summer Party
 MP3  266 MB  Release english Download
  Music VA - Tropical & Deep House Summer Mix 2020 May 29 2020 MP3 320 Kbps
VA - Tropical & Deep House: Summer Mix 2020
 MP3  201 MB  Release english Download
  Music VA - FSOE Top 20 May 2020 Future Sound Of Egypt 2020 MP3 320 Kbps
VA - FSOE Top 20: May 2020 (Future Sound Of Egypt) (2020)
 MP3  322 MB  Release english Download
  Music VA - Retro Remix Quality Vol 372 2020 MP3 320 Kbps
VA - Retro Remix Quality Vol.372 (2020)
 MP3  457 MB  Release english Download