Céline Dion Courage Deluxe Edition 2019 24bit Hi - Res

 Quality-Lossless
Release-2019
Duration-01:10:40
File Size-911 MB
Genre-Pop
Cover Size-1400px
---------------------------------------------------------------------------------------------- Analyzed: Courage (Deluxe Edition) / Artist: Céline Dion
---------------------------------------------------------------------------------------------- DR Peak RMS Duration Title [codec] ---------------------------------------------------------------------------------------------- DR5 -0.00 dB -8.51 dB 3:31 01 - Flying On My Own [flac] DR6 -0.00 dB -9.34 dB 2:50 02 - Lovers Never Die [flac] DR9 -0.00 dB -13.81 dB 3:50 03 - Falling In Love Again [flac] DR5 -0.00 dB -8.37 dB 3:58 04 - Lying Down [flac] DR8 -0.00 dB -12.42 dB 4:13 05 - Courage [flac] DR6 -0.00 dB -10.06 dB 3:58 06 - Imperfections [flac] DR5 -0.00 dB -7.17 dB 3:00 07 - Change My Mind [flac] DR10 -0.00 dB -13.48 dB 3:31 08 - Say Yes [flac] DR7 -0.00 dB -8.80 dB 3:12 09 - Nobody's Watching [flac] DR7 -0.00 dB -9.93 dB 3:49 10 - The Chase [flac] DR9 -0.00 dB -12.50 dB 2:54 11 - For The Lover That I Lost [flac] DR6 -0.00 dB -8.91 dB 3:33 12 - Baby [flac] DR5 -0.00 dB -9.74 dB 3:27 13 - I Will Be Stronger [flac] DR5 -0.00 dB -6.95 dB 4:20 14 - How Did You Get Here [flac] DR5 -0.00 dB -7.35 dB 3:18 15 - Look at Us Now [flac] DR6 -0.00 dB -8.97 dB 3:28 16 - Perfect Goodbye [flac] DR6 -0.00 dB -11.13 dB 3:23 17 - Best of All [flac] DR5 -0.09 dB -8.63 dB 3:31 18 - Heart of Glass [flac] DR4 -0.00 dB -8.89 dB 3:22 19 - Boundaries [flac] DR5 -0.00 dB -8.61 dB 3:24 20 - The Hard Way [flac] ---------------------------------------------------------------------------------------------- Number of files: 20
Official DR value: DR6
Sampling rate: 48000 Hz
Average bitrate: 1712kbs Bits per sample: 24 bit

Release info : Céline.Dion.Courage.Deluxe.Edition.2019.24bit.Hi-Res

Year : (2019)

Langue : English Release English

Section : Music

Uploader: DriffiX

Size : 869 MB

Added : 8 months ago

Céline Dion Courage Deluxe Edition 2019 24bit Hi - Res Image

Verified




  Music Inferno - T C P/I P 2 0 May 1 2020 MP3 320 Kbps
Inferno - T.C.P/I.P 2.0
 MP3  122 MB  Release english Download
  Music Monolord - Empress Rising Instrumental May 1 2020 MP3 320 Kbps
Monolord - Empress Rising (Instrumental)
 MP3  107 MB  Release english Download
  Music Quiet Riot - Trouble In Tulsa Live 1984 2019 MP3 320 Kbps
Quiet Riot - Trouble In Tulsa (Live 1984) (2019)
 MP3  168 MB  Release english Download
  Music Moth - Moth February 2020 MP3 320 Kbps
Moth - Moth
 MP3  83 MB  Release english Download
  Music Phil Gregory - Good Intentions May 1 2020 MP3 320 Kbps
Phil Gregory - Good Intentions
 MP3  84 MB  Release english Download
  Music Kathleen Grace & Larry Goldings - Tie Me To You April 17 2020 MP3 320 Kbps
Kathleen Grace & Larry Goldings - Tie Me To You
 MP3  92 MB  Release english Download
  Music David L Harris - More Than Love To Be A Man May 1 2020 MP3 320 Kbps
David L. Harris - More Than Love, To Be A Man
 MP3  76 MB  Release english Download
  Music The Outer Sonics - Dance A Little Light April 30 2020 MP3 320 Kbps
The Outer Sonics - Dance A Little Light
 MP3  99 MB  Release english Download